搜索论坛 统计排行 帮助
  • 2939阅读
  • 1回复

[ANIME-EAC][07.05][11531D][超时空要塞F剧场版 - 插入歌 Pink Monsoon/May'n](tak+cue+BK)

楼层直达
级别: 光之射手
本帖最后由 ruyu 于 2010-7-5 15:36 编辑


PERFORMER "シェリル·ノーム starring May'n"
TITLE "劇場版 マクロスF 虚空歌姫 ~イツワリノウタヒメ~ 挿入歌 「Pink Monsoon」"
FILE "VTCL-35088.tak" WAVE
TRACK 01 AUDIO
TITLE "pink monsoon"
ISRC JPG750900658
INDEX 01 00:00:00
TRACK 02 AUDIO
TITLE "天使になっちゃった"
ISRC JPG750900659
INDEX 00 04:42:37
INDEX 01 04:44:55
TRACK 03 AUDIO
TITLE "pink monsoon (without sheryl)"
ISRC JPG750900660
INDEX 00 08:59:28
INDEX 01 09:05:27
TRACK 04 AUDIO
TITLE "天使になっちゃった (without sheryl)"
ISRC JPG750900661
INDEX 00 13:47:52
INDEX 01 13:51:40


引用
http://u.115.com/file/t721cf6d0b
May__n_-_Pink.Monsoon.rar
级别: 善良路人
只看该作者 1楼 发表于: 2010-10-11
感謝分享
Macross f劇場版的歌
收下了
快速回复

限100 字节
如果您提交过一次失败了,可以用”恢复数据”来恢复帖子内容
 
认证码:
验证问题: 雪飘工作室的英文名字,抬头看域名(六个字母,全部小写)
上一个 下一个